osu file format v14

[General]
AudioFilename: Shangri-La Shower.mp3
AudioLeadIn: 1500
PreviewTime: 71005
Countdown: 0
SampleSet: None
StackLeniency: 0.7
Mode: 0
LetterboxInBreaks: 1
WidescreenStoryboard: 0

[Editor]
Bookmarks: 54765
DistanceSpacing: 1.7
BeatDivisor: 4
GridSize: 8
TimelineZoom: 4.399998

[Metadata]
Title:Shangri-La Shower
TitleUnicode:Shangri-La Shower
Artist:u's
ArtistUnicode:μ's
Creator:dosyeru
Version:Standard Honk
Source:Love Live! School idol project
Tags:
BeatmapID:795473
BeatmapSetID:362163

[Difficulty]
HPDrainRate:6
CircleSize:4
OverallDifficulty:7
ApproachRate:8
SliderMultiplier:1.8
SliderTickRate:2

[Events]
//Background and Video events
0,0,"Shangri-La_Shower.jpg",0,0
//Break Periods
//Storyboard Layer 0 (Background)
//Storyboard Layer 1 (Fail)
//Storyboard Layer 2 (Pass)
//Storyboard Layer 3 (Foreground)
//Storyboard Sound Samples

[TimingPoints]
630,451.127819548872,4,2,1,5,1,0
1532,-100,4,2,1,10,0,0
1757,-100,4,2,1,15,0,0
1983,-100,4,2,1,30,0,0
2208,-100,4,2,1,40,0,0
6043,-200,4,1,1,70,0,0
8750,-100,4,1,1,70,0,0
9652,-100,4,1,1,70,0,1
24088,-100,4,1,1,70,0,0
25893,-100,4,2,1,80,0,0
36720,-100,4,1,1,60,0,0
38524,-100,4,2,1,70,0,0
39483,-100,4,2,1,5,0,0
39652,-100,4,2,1,70,0,0
40329,-100,4,3,1,70,0,0
54765,-125,4,2,1,70,0,0
61757,-100,4,1,1,70,0,0
71005,-100,4,1,1,70,0,1
99765,-100,4,1,1,70,0,0
99878,-100,4,1,1,70,0,1
113299,-100,4,1,1,30,0,1
114314,-100,4,1,1,70,0,0

[Colours]
Combo1 : 134,251,160
Combo2 : 137,239,248
Combo3 : 179,137,248
Combo4 : 221,249,136

[HitObjects]
256,192,630,12,4,2434,3:0:0:0:
176,296,2885,6,0,B|125:298|81:260|74:208|94:168,1,180,2|0,0:0|0:0,0:0:0:0:
93,170,3787,1,2,0:0:0:0:
216,200,4013,6,0,B|264:216|296:176|296:176|344:200|384:160,1,180,,,0:0:0:0:
224,112,4690,1,2,0:0:0:0:
336,88,4915,1,0,0:0:0:0:
72,56,5141,2,0,L|160:32,1,90,0|0,0:0|0:0,0:0:0:0:
336,88,5592,2,0,L|248:112,1,90,2|0,0:0|0:0,0:0:0:0:
56,208,6043,6,0,B|75:209|75:209|104:192|120:184,1,67.5,4|0,0:0|0:0,0:0:0:0:
224,112,6494,1,2,0:0:0:0:
184,256,6720,1,2,0:2:0:0:
488,192,6945,6,0,B|469:193|469:193|440:176|424:168,1,67.5,4|0,0:0|0:0,0:0:0:0:
336,88,7396,1,2,0:0:0:0:
288,232,7622,1,2,0:2:0:0:
424,88,7848,6,0,L|464:24,1,67.5,6|0,0:0|0:0,0:0:0:0:
300,144,8299,2,0,L|336:87,1,67.5,6|0,0:0|0:0,0:0:0:0:
160,232,8750,6,0,L|184:192,1,45,6|0,0:0|0:0,0:0:0:0:
96,344,8975,2,0,L|120:304,1,45,2|0,0:3|0:0,0:0:0:0:
288,232,9201,5,10,0:0:0:0:
312,240,9314,1,0,0:0:0:0:
328,256,9426,1,2,0:2:0:0:
336,280,9539,1,0,0:0:0:0:
352,304,9652,6,0,B|349:330|367:354|393:361|415:352,1,90,4|0,0:0|0:0,0:0:0:0:
464,216,10103,2,0,L|504:136,1,90,8|0,0:0|0:0,0:0:0:0:
368,176,10554,2,0,B|398:153|396:107|364:82|329:85|308:103,1,135,,,0:0:0:0:
264,120,11005,1,8,0:0:0:0:
400,64,11231,6,0,B|418:37|457:38|480:16,1,90,,,0:0:0:0:
264,208,11682,1,0,0:0:0:0:
435,136,11908,2,0,B|445:106|429:74|400:64,1,90,8|0,0:0|0:0,0:0:0:0:
128,120,12359,5,0,0:0:0:0:
280,40,12584,1,0,0:0:0:0:
168,200,12810,1,8,0:0:0:0:
320,120,13035,1,0,0:0:0:0:
64,160,13261,6,0,B|41:133|45:93|71:70,1,90,0|2,0:0|0:2,0:0:0:0:
24,235,13712,2,0,B|48:255|83:254|106:235,1,90,8|2,0:0|0:2,0:0:0:0:
294,152,14163,2,0,L|202:185,1,90,2|0,0:2|0:0,0:0:0:0:
192,192,14502,1,0,0:0:0:0:
168,200,14614,1,8,0:0:0:0:
296,72,14840,6,0,B|326:60|360:77|369:108,1,90,2|0,0:0|0:0,0:0:0:0:
464,240,15291,1,2,0:2:0:0:
208,72,15517,1,10,0:0:0:0:
448,40,15742,1,0,0:0:0:0:
248,280,15968,2,0,B|176:304|176:304|184:280,1,90,2|8,0:0|0:0,0:0:0:0:
464,240,16419,1,8,0:0:0:0:
180,291,16645,1,0,0:0:0:0:
180,291,16757,1,0,0:0:0:0:
248,280,16870,6,0,B|274:261|282:228|272:201,1,90,4|0,0:0|0:0,0:0:0:0:
208,72,17321,2,0,L|208:168,1,90,8|0,0:0|0:0,0:0:0:0:
180,291,17772,2,0,B|143:296|110:264|115:221|143:201,1,135,,,0:0:0:0:
208,162,18223,1,8,0:0:0:0:
88,64,18449,6,0,B|70:37|31:38|8:16,1,90,,,0:0:0:0:
48,176,18900,1,0,0:0:0:0:
208,72,19126,2,0,B|240:75|264:45|296:41,1,90,8|0,0:0|0:0,0:0:0:0:
304,217,19577,5,0,0:0:0:0:
136,136,19802,1,0,0:0:0:0:
208,312,20028,2,0,B|240:308|264:338|296:342,1,90,8|0,0:0|0:0,0:0:0:0:
432,336,20479,5,0,0:0:0:0:
448,152,20705,1,2,0:2:0:0:
304,216,20930,2,0,B|272:209|250:183|248:153,1,90,8|2,0:0|0:2,0:0:0:0:
248,136,21269,1,0,0:0:0:0:
384,208,21494,1,0,0:0:0:0:
392,224,21607,1,2,0:2:0:0:
392,32,21833,2,0,B|360:39|338:65|336:95,1,90,8|0,0:0|0:0,0:0:0:0:
252,231,22284,6,0,L|221:263,1,45,4|0,0:0|0:0,0:0:0:0:
81,318,22509,2,0,L|100:273,1,45,,,0:0:0:0:
66,156,22735,2,0,L|18:156,2,45,8|0|0,0:0|0:0|0:0,0:0:0:0:
384,184,23186,6,0,L|427:171,2,45,2|0|0,0:2|0:0|0:0,0:0:0:0:
224,136,23524,2,0,L|181:149,2,45,2|8|0,0:2|0:0|0:0,0:0:0:0:
336,96,23863,5,2,0:2:0:0:
368,88,23975,5,0,0:0:0:0:
400,80,24088,5,4,0:0:0:0:
432,72,25442,5,2,2:3:0:0:
472,64,25893,6,0,L|464:153,1,90,4|0,0:0|0:0,0:0:0:0:
448,264,26344,1,8,0:0:0:0:
352,320,26569,1,0,0:0:0:0:
328,336,26682,1,0,0:0:0:0:
304,344,26795,2,0,B|277:360|242:353|224:328,1,90,,,0:0:0:0:
160,216,27246,1,8,0:0:0:0:
280,272,27472,6,0,B|328:240|320:200|320:200|400:144,1,180,,,0:0:0:0:
376,40,28148,2,0,L|300:87,1,90,8|0,0:0|0:0,0:0:0:0:
280,104,28487,1,0,0:0:0:0:
256,120,28599,1,0,0:0:0:0:
376,240,28824,1,0,0:0:0:0:
176,136,29051,2,0,B|144:112|144:112|112:120|88:88,1,90,8|0,0:0|0:0,0:0:0:0:
24,24,29502,6,0,B|-5:43|-12:83|8:111,1,90,,,0:0:0:0:
72,232,29953,1,8,0:0:0:0:
98,99,30178,1,0,0:0:0:0:
160,304,30404,2,0,B|188:343|188:343|232:352,1,90,0|0,0:0|0:0,0:0:0:0:
376,344,30855,1,8,0:0:0:0:
248,272,31081,6,0,B|215:242|226:186|273:166|312:183|327:213,1,180,2|0,0:0|0:0,0:0:0:0:
416,272,31757,1,8,0:0:0:0:
408,160,31983,2,0,B|391:118|335:108|299:147|302:190|326:214,1,180,2|0,0:0|0:0,0:0:0:0:
416,272,32660,1,8,0:0:0:0:
408,160,32885,1,0,0:0:0:0:
320,320,33111,6,0,B|292:344|257:355|224:352,1,90,4|0,0:0|0:0,0:0:0:0:
184,344,33449,1,0,0:0:0:0:
136,320,33562,2,0,B|120:312|120:312|144:272|104:240,1,90,8|0,0:0|0:0,0:0:0:0:
24,184,34013,6,0,B|-3:201|-10:238|8:264,1,90,,,0:0:0:0:
184,176,34464,1,8,0:0:0:0:
112,248,34690,1,0,0:0:0:0:
112,104,34915,6,0,B|140:80|175:69|208:72,1,90,,,0:0:0:0:
248,80,35253,1,0,0:0:0:0:
296,104,35366,2,0,B|312:112|312:112|288:152|328:184,1,90,8|0,0:0|0:0,0:0:0:0:
384,288,35817,6,0,L|392:192,1,90,,,0:0:0:0:
472,80,36269,2,0,L|464:169,1,90,8|0,0:0|0:0,0:0:0:0:
448,312,36720,6,0,B|443:346|408:366|376:355,1,90,4|0,0:0|0:0,0:0:0:0:
176,344,37171,1,8,0:0:0:0:
384,120,37396,2,0,L|432:104,2,45,2|0|0,0:0|0:0|0:0,0:0:0:0:
96,192,37848,1,2,0:0:0:0:
384,288,38073,1,8,0:0:0:0:
208,48,38299,1,4,0:0:0:0:
392,296,38750,5,2,0:0:0:0:
400,304,38863,1,0,0:0:0:0:
408,312,38975,2,0,L|440:344,2,45,8|0|0,0:0|0:0|0:0,0:0:0:0:
312,224,39426,6,0,L|312:200,7,22.5,2|0|0|0|0|0|0|0,0:0|0:0|0:0|0:0|0:0|0:0|0:0|0:0,0:0:0:0:
304,248,39878,2,0,B|283:276|247:284|217:272,1,90,8|0,0:0|0:0,0:0:0:0:
136,208,40329,6,0,L|128:297,1,90,4|0,0:2|0:0,0:0:0:0:
24,320,40780,1,8,0:2:0:0:
192,352,41005,1,0,0:0:0:0:
88,216,41231,2,0,B|107:187|137:171|168:168,1,90,,,0:0:0:0:
272,152,41682,1,8,0:2:0:0:
376,288,41908,6,0,B|480:280|480:168,1,180,,,0:0:0:0:
376,40,42584,2,0,L|300:87,1,90,8|0,0:2|0:0,0:0:0:0:
168,152,43035,1,0,0:0:0:0:
376,288,43260,1,0,0:0:0:0:
376,40,43487,1,8,0:2:0:0:
224,224,43712,1,0,0:0:0:0:
416,104,43938,6,0,B|446:94|463:63|457:34,1,90,,,0:0:0:0:
296,64,44389,1,8,0:2:0:0:
416,176,44614,1,0,0:0:0:0:
248,128,44840,2,0,B|219:97|219:97|218:49,1,90,0|0,0:0|0:0,0:0:0:0:
336,136,45291,1,8,0:2:0:0:
168,176,45517,6,0,L|64:176,1,90,2|0,0:2|0:0,0:0:0:0:
320,256,45968,1,2,0:2:0:0:
232,248,46193,1,8,0:2:0:0:
416,208,46419,6,0,L|520:208,1,90,2|0,0:2|0:0,0:0:0:0:
280,112,46870,1,0,0:0:0:0:
400,112,47096,2,0,B|408:78|394:44|368:24,1,90,8|0,0:2|0:0,0:0:0:0:
184,32,47547,6,0,B|161:62|154:98|160:131,1,90,4|0,0:2|0:0,0:0:0:0:
192,280,47998,2,0,B|186:240|232:228|232:228|226:211,1,90,8|0,0:2|0:0,0:0:0:0:
48,136,48449,6,0,B|19:151|9:185|22:213,1,90,,,0:0:0:0:
80,344,48900,1,8,0:2:0:0:
112,192,49126,1,0,0:0:0:0:
272,288,49351,6,0,B|263:324|239:352|210:369,1,90,,,0:0:0:0:
352,192,49802,2,0,B|368:184|368:184|344:144|384:112,1,90,8|0,0:2|0:0,0:0:0:0:
256,200,50254,5,0,0:0:0:0:
384,272,50479,1,0,0:0:0:0:
483,131,50705,2,0,B|480:99|469:69|451:45,1,90,8|0,0:2|0:0,0:0:0:0:
376,120,51156,6,0,B|345:128|314:107|309:75,1,90,4|0,0:2|0:0,0:0:0:0:
309,75,51607,1,8,0:2:0:0:
208,184,51833,2,0,B|172:221|107:214|78:159|94:114,1,180,2|0,0:2|0:0,0:0:0:0:
216,48,52509,1,8,0:2:0:0:
304,168,52735,1,0,0:0:0:0:
312,192,52848,1,0,0:0:0:0:
312,216,52960,2,0,B|317:250|290:281|256:280,1,90,2|0,0:2|0:0,0:0:0:0:
120,272,53411,5,10,0:2:0:0:
376,48,53863,1,2,0:0:0:0:
392,40,53975,1,0,0:0:0:0:
264,104,54201,1,0,0:0:0:0:
248,112,54314,1,10,0:0:0:0:
488,120,54539,1,0,0:0:0:0:
488,120,54765,6,0,L|464:200,1,72,4|0,0:0|0:0,0:0:0:0:
462,210,55103,1,0,0:0:0:0:
457,230,55216,1,0,0:0:0:0:
461,237,55442,5,2,0:0:0:0:
344,168,55667,2,0,B|315:155|281:172|273:206|287:231,1,108,2|0,0:0|0:0,0:0:0:0:
296,248,56118,1,8,0:0:0:0:
296,248,56344,5,0,0:0:0:0:
192,328,56569,2,0,L|112:288,1,72,2|0,0:0|0:0,0:0:0:0:
88,168,57020,2,0,L|152:200,2,72,0|2|2,0:0|0:0|0:0,0:0:0:0:
16,56,57697,1,0,0:0:0:0:
200,136,57923,1,8,0:0:0:0:
40,256,58148,1,0,0:0:0:0:
184,56,58374,6,0,B|213:41|248:49|269:75|272:103,1,108,2|0,0:0|0:0,0:0:0:0:
272,112,58825,1,0,0:0:0:0:
272,112,59051,5,2,0:0:0:0:
320,232,59276,1,2,0:0:0:0:
440,176,59502,2,0,L|472:111,1,72,0|8,0:0|0:0,0:0:0:0:
424,288,59953,1,0,0:0:0:0:
334,146,60178,6,0,L|272:112,1,72,2|0,0:0|0:0,0:0:0:0:
120,184,60629,2,0,L|182:218,1,72,0|2,0:0|0:0,0:0:0:0:
424,288,61081,5,12,0:0:0:0:
120,328,61419,1,6,0:0:0:0:
56,56,61757,2,0,B|112:-8|160:80|224:48,1,180,4|0,0:0|0:0,0:0:0:0:
368,24,62434,5,8,0:0:0:0:
272,136,62660,1,0,0:0:0:0:
416,112,62885,2,0,B|448:103|467:72|464:41,1,90,,,0:0:0:0:
347,183,63336,2,0,B|362:213|396:226|425:217,1,90,8|0,0:0|0:0,0:0:0:0:
272,136,63787,6,0,B|226:143|201:193|222:239|261:256|294:248,1,180,0|8,0:0|0:0,0:0:0:0:
416,112,64464,1,0,0:0:0:0:
376,320,64690,6,0,B|327:364|255:361|209:321,1,180,0|8,0:0|0:0,0:0:0:0:
416,112,65367,1,0,0:0:0:0:
174,265,65592,1,4,0:0:0:0:
248,62,65817,5,2,0:0:0:0:
376,320,66042,1,10,0:0:0:0:
172,266,66269,1,0,0:0:0:0:
393,228,66494,5,6,0:0:0:0:
174,114,66720,1,2,0:0:0:0:
243,323,66946,1,8,0:0:0:0:
416,112,67171,6,0,B|369:68|308:52|250:62,1,180,4|0,0:0|0:0,0:0:0:0:
87,77,67848,1,8,0:0:0:0:
144,227,68073,6,0,B|206:244|269:214|297:161,1,180,2|0,0:2|0:0,0:0:0:0:
397,33,68750,1,8,0:0:0:0:
408,194,68975,6,0,L|416:306,1,90,2|0,0:2|0:0,0:0:0:0:
400,120,69426,1,0,0:0:0:0:
280,256,69652,1,8,0:0:0:0:
280,256,69765,1,0,0:0:0:0:
280,256,69878,1,0,0:0:0:0:
280,256,69990,1,0,0:0:0:0:
280,256,70103,1,0,0:0:0:0:
256,192,70216,12,6,71005,0:0:0:0:
96,80,71231,5,0,0:0:0:0:
128,240,71457,2,0,L|144:336,1,90,8|2,0:0|0:0,0:0:0:0:
216,136,71908,1,0,0:0:0:0:
360,216,72133,1,0,0:0:0:0:
320,56,72359,5,8,0:0:0:0:
296,288,72584,2,0,B|320:313|353:320|384:312,1,90,,,0:0:0:0:
464,176,73036,1,0,0:0:0:0:
272,208,73261,1,8,0:0:0:0:
400,104,73487,1,0,0:0:0:0:
216,136,73712,5,2,0:2:0:0:
480,272,73938,1,0,0:0:0:0:
184,216,74163,1,8,0:0:0:0:
400,104,74389,1,0,0:0:0:0:
152,296,74614,6,0,B|120:282|101:253|99:221,1,90,2|0,0:0|0:0,0:0:0:0:
80,64,75066,1,8,0:0:0:0:
216,136,75291,2,0,L|312:120,1,90,2|0,0:0|0:0,0:0:0:0:
440,32,75742,1,0,0:0:0:0:
440,32,75855,1,0,0:0:0:0:
440,32,75968,5,8,0:0:0:0:
304,120,76193,2,0,B|303:154|322:183|349:199,1,90,,,0:0:0:0:
480,280,76645,1,0,0:0:0:0:
408,128,76870,1,8,0:0:0:0:
328,272,77096,1,0,0:0:0:0:
216,136,77321,5,2,0:2:0:0:
200,120,77434,1,0,0:0:0:0:
176,104,77547,2,0,B|152:79|119:72|88:80,1,90,0|8,0:0|0:0,0:0:0:0:
0,216,77998,1,0,0:0:0:0:
288,152,78223,6,0,B|303:132|302:105|285:86|265:80,1,90,4|0,0:0|0:0,0:0:0:0:
64,264,78675,5,8,0:0:0:0:
288,152,78900,1,0,0:0:0:0:
88,336,79126,2,0,B|64:329|48:306|50:281|63:264,1,90,,,0:0:0:0:
112,56,79577,1,8,0:0:0:0:
200,288,79802,6,0,B|232:296|256:264|256:264|280:288,1,90,,,0:0:0:0:
400,64,80254,1,0,0:0:0:0:
272,88,80479,1,8,0:0:0:0:
480,224,80705,2,0,B|504:245|491:282|491:282|512:298,2,90,0|0|0,0:0|0:0|0:0,0:0:0:0:
400,64,81381,1,8,0:0:0:0:
310,186,81607,6,0,B|288:256|288:256|272:240,1,90,2|0,0:2|0:0,0:0:0:0:
272,88,82058,1,0,0:0:0:0:
384,288,82284,1,8,0:0:0:0:
272,88,82509,6,0,B|248:16|248:16|224:40,1,90,2|0,0:2|0:0,0:0:0:0:
296,344,82960,1,0,0:0:0:0:
152,48,83186,1,8,0:0:0:0:
72,288,83411,6,0,B|49:357|49:357|33:341,1,90,2|0,0:2|0:0,0:0:0:0:
48,120,83862,1,0,0:0:0:0:
168,344,84088,1,8,0:0:0:0:
8,208,84314,5,2,0:2:0:0:
8,208,84426,1,0,0:0:0:0:
8,208,84539,5,2,0:0:0:0:
240,24,84765,1,2,0:0:0:0:
496,192,84990,1,10,0:0:0:0:
496,192,85103,1,0,0:0:0:0:
500,201,85216,1,0,0:0:0:0:
500,201,85329,1,0,0:0:0:0:
500,201,85442,6,0,B|523:174|516:134|487:115,1,90,6|0,0:0|0:0,0:0:0:0:
332,86,85893,1,8,0:0:0:0:
416,232,86118,2,0,B|392:257|359:264|328:256,1,90,2|0,0:0|0:0,0:0:0:0:
192,176,86569,1,0,0:0:0:0:
332,86,86795,5,8,0:0:0:0:
333,259,87020,2,0,B|341:292|366:315|397:323,1,90,,,0:0:0:0:
496,192,87472,1,0,0:0:0:0:
279,168,87697,1,8,0:0:0:0:
494,96,87923,1,0,0:0:0:0:
179,253,88148,6,0,B|155:278|122:285|91:277,1,90,2|0,0:2|0:0,0:0:0:0:
249,60,88599,2,0,B|280:52|311:63|331:85,1,90,8|0,0:0|0:0,0:0:0:0:
364,346,89050,6,0,B|393:333|412:306|416:277,1,90,2|0,0:0|0:0,0:0:0:0:
411,114,89502,1,8,0:0:0:0:
341,269,89727,2,0,L|252:283,1,90,2|0,0:0|0:0,0:0:0:0:
82,304,90178,1,0,0:0:0:0:
221,205,90404,5,8,0:0:0:0:
51,225,90629,2,0,B|50:191|69:162|96:146,1,90,,,0:0:0:0:
229,46,91081,1,0,0:0:0:0:
252,284,91306,1,8,0:0:0:0:
116,47,91532,1,0,0:0:0:0:
166,321,91757,6,0,B|182:351|213:366|244:366,1,90,2|0,0:2|0:0,0:0:0:0:
485,160,92208,2,0,B|469:130|438:114|406:114,1,90,8|0,0:0|0:0,0:0:0:0:
358,267,92660,6,0,B|373:247|372:220|355:201|335:195,1,90,4|0,0:0|0:0,0:0:0:0:
206,67,93111,1,8,0:0:0:0:
404,346,93336,6,0,B|429:345|449:326|454:302|447:282,1,90,,,0:0:0:0:
184,154,93787,1,0,0:0:0:0:
293,43,94013,1,8,0:0:0:0:
242,335,94238,6,0,B|274:327|298:359|298:359|322:335,1,90,,,0:0:0:0:
358,108,94690,1,0,0:0:0:0:
248,219,94915,1,8,0:0:0:0:
334,194,95141,1,0,0:0:0:0:
207,68,95366,6,0,B|175:70|158:34|158:34|132:38,1,90,2|0,0:2|0:0,0:0:0:0:
38,215,95817,2,0,B|38:231|38:231|103:197,1,90,8|0,0:0|0:0,0:0:0:0:
270,128,96269,5,2,0:2:0:0:
270,128,96494,1,0,0:0:0:0:
427,215,96720,1,8,0:0:0:0:
490,47,96945,6,0,B|415:31|415:31|424:64,1,90,2|0,0:2|0:0,0:0:0:0:
427,215,97396,1,0,0:0:0:0:
421,45,97622,1,8,0:0:0:0:
279,317,97848,6,0,B|268:339|244:350|219:346|203:331,1,90,2|0,0:0|0:0,0:0:0:0:
55,229,98298,1,0,0:0:0:0:
152,80,98524,5,10,0:0:0:0:
200,48,98637,1,0,0:0:0:0:
256,40,98750,1,0,0:0:0:0:
304,48,98862,1,0,0:0:0:0:
352,80,98975,1,4,0:0:0:0:
392,240,99314,5,0,0:0:0:0:
408,288,99426,1,4,0:0:0:0:
456,160,99652,1,0,0:0:0:0:
328,336,99878,6,0,B|314:359|287:368|262:358|249:339,1,90,4|0,0:0|0:0,0:0:0:0:
240,184,100329,2,0,L|280:264,1,90,8|0,0:0|0:0,0:0:0:0:
328,168,100780,2,0,B|351:138|337:94|300:78|267:89|251:113,1,135,0|0,0:0|0:0,0:0:0:0:
216,136,101231,1,8,0:0:0:0:
216,136,101457,6,0,B|205:105|167:96|153:73,1,90,0|0,0:0|0:0,0:0:0:0:
48,96,101908,1,0,0:0:0:0:
16,200,102134,2,0,B|6:230|22:262|51:272,1,90,8|0,0:0|0:0,0:0:0:0:
120,192,102585,5,0,0:0:0:0:
160,296,102810,1,0,0:0:0:0:
256,248,103036,1,8,0:0:0:0:
304,344,103261,1,0,0:0:0:0:
408,288,103487,6,0,B|440:272|452:235|439:204,1,90,0|0,0:0|0:0,0:0:0:0:
472,96,103938,2,0,B|446:77|411:81|390:103,1,90,8|0,0:0|0:0,0:0:0:0:
326,202,104389,1,0,0:0:0:0:
443,212,104614,1,0,0:0:0:0:
391,105,104840,1,8,0:0:0:0:
310,307,105066,6,0,B|377:315|436:267|446:204,1,180,2|0,0:2|0:0,0:0:0:0:
390,104,105743,1,8,0:0:0:0:
330,204,105968,6,0,B|263:212|204:164|194:101,1,180,2|0,0:2|0:0,0:0:0:0:
185,79,106532,1,0,0:0:0:0:
179,52,106645,1,8,0:0:0:0:
103,129,106871,1,0,0:0:0:0:
273,23,107096,6,0,B|299:41|308:74|299:101,1,90,4|0,0:0|0:0,0:0:0:0:
218,246,107547,2,0,L|218:156,1,90,8|0,0:0|0:0,0:0:0:0:
133,87,107998,2,0,B|105:62|59:71|40:110|52:143,1,135,0|0,0:0|0:0,0:0:0:0:
65,197,108449,1,8,0:0:0:0:
219,156,108675,6,0,B|237:129|278:123|297:105,1,90,0|0,0:0|0:0,0:0:0:0:
376,177,109126,1,0,0:0:0:0:
477,139,109352,2,0,B|473:111|443:87|446:55,1,90,8|0,0:0|0:0,0:0:0:0:
292,191,109803,5,0,0:0:0:0:
449,55,110028,1,0,0:0:0:0:
453,262,110254,2,0,B|421:258|397:288|365:292,1,90,8|0,0:0|0:0,0:0:0:0:
268,329,110705,6,0,B|236:322|214:296|212:266,1,90,2|2,0:0|0:2,0:0:0:0:
165,148,111156,1,8,0:0:0:0:
293,191,111381,2,0,B|325:184|347:158|349:128,1,90,2|2,0:0|0:2,0:0:0:0:
245,47,111833,1,2,0:0:0:0:
293,190,112058,1,8,0:0:0:0:
149,62,112284,2,0,L|109:32,2,45,2|0|8,0:0|0:0|0:0,0:0:0:0:
168,319,112735,2,0,B|131:352|71:342|43:292|55:249,1,180,2|0,0:2|2:0,0:0:0:0:
256,192,113299,12,4,114314,0:0:0:0:
